Смеяться разрешается (Эфир 02.06.2019) [2019 г., Юмор, SATRip]

Ответить на тему
Статистика раздачи
Размер:  1,26 GB   |    Зарегистрирован:  11 дней   |    Скачан:  0 раз
Сидов:  1  [  0 KB/s  ]   Подробная статистика пиров
 
     
 
 
 

фазилов ®

Стаж: 5 лет 4 месяца

Сообщений: 376

Симпатии: 359

(Эфир 02.06.2019) Год выпуска: 2019
Страна: Россия
Жанр: Юмор
Продолжительность: 01:30:11
Описание: Многообразие жанров – визитная карточка этого шоу: монологи, юморески, оригинальные номера, музыкальные пародии, а также популярные песни - вот лишь незначительный перечень этого юмористического капустника!
Это настоящий праздник смеха, юмора, музыки и пародии. За хорошее настроение отвечают ведущие Николай Бандурин и Михаил Вашуков.
Приготовьтесь смеяться и удивляться!
В этом выпуске:
1.Л.Измайлов - Мужики
2.Н.Коростелёва – Абонемент на фитнес
3.Шоу-группа "Экс-ББ" - Интернетная
4.А.Щеглов – Папин дневник
5.В.Данилец и В.Моисеенко – Паркинсон бойз
6.А.Макеева - Помоги мне
7.К.Аванесян – Культурные люди
8.С.Рожкова – О женщинах
9.В.Минасов – Человек-шар
10.Г.Ветров – Эх, дороги
11.И.Борисова и А.Егоров – Под марш Мельденсона
12.Е.Воробей и С.Любавин - Лайкаю
13.Е.Смолин - Подозрительный
14.П.Дранга – Коробейники
Видео кодек: XviD
Аудио кодек: AC3

Видео: 720x400 (1.80:1), 25 fps, XviD build 50 ~1799 kbps avg, 0.25 bit/pixel
Аудио: 48 kHz, AC3 Dolby Digital, 2/0 (L,R) ch, ~192 kbps

Mediainfo

Общее
Полное имя : E:\Мои релизы-2\Смеяться разрешается_2019\13. Смеяться разрешается (Эфир 02.06.2019).avi
Формат : AVI
Формат/Информация : Audio Video Interleave
Размер файла : 1,25 Гбайт
Продолжительность : 1 ч. 30 м.
Общий поток : 2001 Кбит/сек
Программа кодирования : VirtualDubMod 1.5.10.3| (build 2550/release)
Библиотека кодирования : VirtualDubMod build 2550/release
Видео
Идентификатор : 0
Формат : MPEG-4 Visual
Профиль формата : Advanced Simple@L5
Параметр BVOP формата : 2
Параметр QPel формата : Нет
Параметр GMC формата : Без точки перехода
Параметр матрицы формата : Default (H.263)
Идентификатор кодека : XVID
Идентификатор кодека/Подсказка : XviD
Продолжительность : 1 ч. 30 м.
Битрейт : 1800 Кбит/сек
Ширина : 720 пикселей
Высота : 400 пикселей
Соотношение сторон : 16:9
Частота кадров : 25,000 кадров/сек
Цветовое пространство : YUV
Субдискретизация насыщенности : 4:2:0
Битовая глубина : 8 бит
Тип развёртки : Прогрессивная
Метод сжатия : С потерями
Бит/(Пиксели*Кадры) : 0.250
Размер потока : 1,38 Гбайт (90%)
Библиотека кодирования : XviD 1.2.1 (UTC 2008-12-04)
Аудио
Идентификатор : 1
Формат : AC-3
Формат/Информация : Audio Coding 3
Расширение режима : CM (complete main)
Параметр Endianness формата : Big
Идентификатор кодека : 2000
Продолжительность : 1 ч. 30 м.
Вид битрейта : Постоянный
Битрейт : 192 Кбит/сек
Каналы : 2 канала
Расположение каналов : Front: L R
Частота : 48,0 КГц
Частота кадров : 31,250 кадров/сек (1536 spf)
Битовая глубина : 16 бит
Метод сжатия : С потерями
Размер потока : 151 Мбайт (10%)
Выравнивание : Разделение по промежуткам
Продолжительность промежутка : 40 мс. (1,00 видеокадр)
Время предзагрузки промежутка : 500 мс.
[tas-ix.me].t120826.torrent
Торрент: Зарегистрирован [ 2019-06-04 20:18 ] · DCF0E72911B6B59E9381D995E11194779AFD145A

Скачать .torrent

Скачать

13 KB

Статус: проверено
Скачан: 0 раз
Размер: 1,26 GB
 

Создавать темы 04-Июн-2019 20:18

[Профиль]  [ЛС] 
Показать сообщения:    
Ответить на тему

Текущее время: 16-Июн 15:53

Часовой пояс: UTC + 5



Вы не можете начинать темы
Вы не можете отвечать на сообщения
Вы не можете редактировать свои сообщения
Вы не можете удалять свои сообщения
Вы не можете голосовать в опросах
Вы не можете прикреплять файлы к сообщениям
Вы не можете скачивать файлы