Люди Икс (Коллекция) / X-Men Collection (Брайан Сингер, Бретт Рэтнер, Гэвин Худ) [2000-2016, фантастика, боевик, триллер, BDRip 1080p] (Dub + Eng) Sub: Rus,Eng

Ответить на тему
Статистика раздачи
Размер:  48,32 GB   |    Зарегистрирован:  2 года   |    Скачан:  59 раз
Сидов:  1  [  0 KB/s  ]   Подробная статистика пиров
 
     
 
 
 

Abnormal ®

Стаж: 3 года 4 месяца

Сообщений: 9

Симпатии: 6

Название: Люди Икс (Коллекция)
Оригинальное название: X-Men Collection
Год выхода: 2000 - 2016
Продолжительность: 01:44:20 | 02:23:56
Перевод: Профессиональный (полное дублирование)
Оригинальная аудиодорожка: английский
Дополнительное информация: Источник BD-Remux.1080p
Сохранены оригинальные главы как на Blu-ray.
Качество видео: BDRip.1080p
Формат видео: MKV

Люди Икс (Коллекция)

[/img]Фильм 1:
Название: Люди Икс
Оригинальное название: X-Men
Выпущено: США
Год выхода: 2000
Жанр: фантастика, боевик, приключения
Продолжительность: 01:44:20
Режиссер: Брайан Сингер
В ролях: Хью Джекман, Патрик Стюарт, Иэн МакКеллен, Фамке Янссен, Джеймс Марсден, Холли Берри, Анна Пэкуин, Шон Эшмор, Ребекка Ромейн, Тайлер Мэйн
Сюжет фильма: Они — дети атомного века, сверхлюди, новое звено в цепи эволюции. Каждый из них был рождён в результате уникальной генетической мутации, наделившей их с детства необыкновенными способностями. В мире, где царят ненависть и предрассудки, мутанты — причуда науки и каприз природы. Этих изгоев ненавидят и боятся те, кто не способен понять и принять их индивидуальность. И всё же, несмотря на невежество и агрессивность масс, тысячи мутантов выживают.
Под руководством профессора Чарльза Ксавьера, телепата с мировым именем, одарённые ученики научились контролировать и управлять своими удивительными способностями в интересах человечества.
Но не все мутанты разделяют взгляды профессора: могущественный мутант Магнето, которому подвластны все металлы, собрал команду единомышленников. Он не верит, что люди и мутанты когда-либо смогут мирно сосуществовать. Они разработали план, чтобы осуществить захват власти над миром, и тогда, только ученики профессора Ксавьера смогут защитить этот мир…
Видео: MPEG-4 AVC, 7010 Кбит/с, 1920x816, 23.976 кадр/с
Аудио: 1 Russian: AC3, 48000Hz, 5.1 6ch 448kb/s |Дубляж|
Аудио: 2 English: AC3, 48000Hz, 5.1 6ch 448kb/s
Субтитры: Russian, English

MediaInfo

General
Unique ID : 229747324576705617640183136571312493155 (0xACD7B9A700C29F59ABE1242F3116D263)
Complete name : E:\Lyudi iks.[Polnaya kollekciya].(2000-2016).BDRip.1080p\Lyudi iks 2000.BDRip.1080p.mkv
Format : Matroska
Format version : Version 2
File size : 5.76 GiB
Duration : 1h 44mn
Overall bit rate : 7 904 Kbps
Movie name : Lyudi iks 2000.BDRip.1080p
Encoded date : UTC 2017-06-05 19:40:18
Writing application : mkvmerge v5.8.0 ('No Sleep / Pillow') built on Sep 2 2012 15:37:04
Writing library : libebml v1.2.3 + libmatroska v1.3.0
Attachment : Yes
Video
ID : 1
Format : AVC
Format/Info : Advanced Video Codec
Format profile : High@L4.1
Format settings, CABAC : Yes
Format settings, ReFrames : 5 frames
Codec ID : V_MPEG4/ISO/AVC
Duration : 1h 44mn
Bit rate : 7 010 Kbps
Width : 1 920 pixels
Height : 816 pixels
Display aspect ratio : 2.35:1
Frame rate mode : Constant
Frame rate : 23.976 fps
Color space : YUV
Chroma subsampling : 4:2:0
Bit depth : 8 bits
Scan type : Progressive
Bits/(Pixel*Frame) : 0.187
Stream size : 4.99 GiB (87%)
Title : Release by AlexKa
Writing library : x264 core 129 r2230 1cffe9f
Encoding settings : cabac=1 / ref=5 / deblock=1:0:0 / analyse=0x3:0x133 / me=umh / subme=10 / psy=1 / psy_rd=1.00:0.10 / mixed_ref=1 / me_range=32 / chroma_me=1 / trellis=2 / 8x8dct=1 / cqm=0 / deadzone=21,11 / fast_pskip=0 / chroma_qp_offset=-3 / threads=12 / lookahead_threads=2 / sliced_threads=0 / nr=0 / decimate=0 / interlaced=0 / bluray_compat=0 / constrained_intra=0 / bframes=5 / b_pyramid=2 / b_adapt=2 / b_bias=0 / direct=3 / weightb=1 / open_gop=0 / weightp=2 / keyint=240 / keyint_min=23 / scenecut=40 / intra_refresh=0 / rc=2pass / mbtree=0 / bitrate=7010 / ratetol=1.0 / qcomp=0.60 / qpmin=0 / qpmax=69 / qpstep=4 / cplxblur=20.0 / qblur=0.5 / ip_ratio=1.40 / pb_ratio=1.30 / aq=1:0.80
Language : English
Default : Yes
Forced : No
Audio #1
ID : 2
Format : AC-3
Format/Info : Audio Coding 3
Mode extension : CM (complete main)
Format settings, Endianness : Big
Codec ID : A_AC3
Duration : 1h 44mn
Bit rate mode : Constant
Bit rate : 448 Kbps
Channel(s) : 6 channels
Channel positions : Front: L C R, Side: L R, LFE
Sampling rate : 48.0 KHz
Bit depth : 16 bits
Compression mode : Lossy
Stream size : 334 MiB (6%)
Title : |Дубляж|
Language : Russian
Default : Yes
Forced : No
Audio #2
ID : 3
Format : AC-3
Format/Info : Audio Coding 3
Mode extension : CM (complete main)
Format settings, Endianness : Big
Codec ID : A_AC3
Duration : 1h 44mn
Bit rate mode : Constant
Bit rate : 448 Kbps
Channel(s) : 6 channels
Channel positions : Front: L C R, Side: L R, LFE
Sampling rate : 48.0 KHz
Bit depth : 16 bits
Compression mode : Lossy
Stream size : 334 MiB (6%)
Title : |Original|
Language : English
Default : No
Forced : No
Text #1
ID : 4
Format : UTF-8
Codec ID : S_TEXT/UTF8
Codec ID/Info : UTF-8 Plain Text
Language : Russian
Default : No
Forced : No
Text #2
ID : 5
Format : UTF-8
Codec ID : S_TEXT/UTF8
Codec ID/Info : UTF-8 Plain Text
Language : English
Default : No
Forced : No
Menu
00:00:00.000 : :Chapter 01
00:01:18.555 : :Chapter 02
00:04:18.022 : :Chapter 03
00:14:11.140 : :Chapter 04
00:22:25.862 : :Chapter 05
00:31:11.076 : :Chapter 06
00:40:30.576 : :Chapter 07
00:50:48.127 : :Chapter 08
00:57:28.545 : :Chapter 09
01:03:35.728 : :Chapter 10
01:11:00.130 : :Chapter 11
01:20:32.905 : :Chapter 12
01:28:11.417 : :Chapter 13
01:35:13.027 : :Chapter 14

Скриншоты

Фильм 2:
Название: Люди Икс 2
Оригинальное название: X2
Выпущено: Канада, США
Год выхода: 2003
Жанр: фантастика, боевик, триллер
Продолжительность: 02:13:47
Режиссер: Брайан Сингер
В ролях: Патрик Стюарт, Хью Джекман, Иэн МакКеллен, Холли Берри, Фамке Янссен, Джеймс Марсден, Анна Пэкуин, Ребекка Ромейн, Брайан Кокс, Алан Камминг
Сюжет фильма: Мутанты продолжают борьбу против общества, которое страшит их, и которому они не доверяют. Их положение становится еще более отчаянным, когда они подвергаются мощной атаке неизвестного противника, обладающего экстраординарными способностями.
Внезапное нападение снова становится причиной политического и общественного резонанса по поводу введения повсеместной регистрации мутантов и причиной образования движения против мутантов, возглавляемого Уильямом Страйкером, бывшим военным, который, по слухам, проводил опыты над мутантами.
Видео: MPEG-4 AVC, 7533 Кбит/с, 1920x800, 23.976 кадр/с
Аудио: 1 Russian: AC3, 48000Hz, 5.1 6ch 384kb/s |Дубляж|
Аудио: 2 English: AC3, 48000Hz, 5.1 6ch 384kb/s
Субтитры: Russian, English

MediaInfo

General
Unique ID : 200781350730863079736475682793911580221 (0x970D14E16CBB9CF6896AA690D6BD763D)
Complete name : E:\Lyudi iks.[Polnaya kollekciya].(2000-2016).BDRip.1080p\Lyudi iks 2003.BDRip.1080p.mkv
Format : Matroska
Format version : Version 2
File size : 7.76 GiB
Duration : 2h 13mn
Overall bit rate : 8 303 Kbps
Movie name : Lyudi iks 2003.BDRip.1080p
Encoded date : UTC 2017-06-05 19:36:05
Writing application : mkvmerge v5.8.0 ('No Sleep / Pillow') built on Sep 2 2012 15:37:04
Writing library : libebml v1.2.3 + libmatroska v1.3.0
Attachment : Yes
Video
ID : 1
Format : AVC
Format/Info : Advanced Video Codec
Format profile : High@L4.1
Format settings, CABAC : Yes
Format settings, ReFrames : 5 frames
Codec ID : V_MPEG4/ISO/AVC
Duration : 2h 13mn
Bit rate : 7 533 Kbps
Width : 1 920 pixels
Height : 800 pixels
Display aspect ratio : 2.40:1
Frame rate mode : Constant
Frame rate : 23.976 fps
Color space : YUV
Chroma subsampling : 4:2:0
Bit depth : 8 bits
Scan type : Progressive
Bits/(Pixel*Frame) : 0.205
Stream size : 6.89 GiB (89%)
Title : Release by Neofilm
Writing library : x264 core 148 r2744 b97ae06
Encoding settings : cabac=1 / ref=5 / deblock=1:0:0 / analyse=0x3:0x133 / me=umh / subme=10 / psy=1 / psy_rd=1.00:0.00 / mixed_ref=1 / me_range=24 / chroma_me=1 / trellis=2 / 8x8dct=1 / cqm=0 / deadzone=21,11 / fast_pskip=0 / chroma_qp_offset=-2 / threads=24 / lookahead_threads=2 / sliced_threads=0 / nr=0 / decimate=1 / interlaced=0 / bluray_compat=0 / constrained_intra=0 / bframes=3 / b_pyramid=2 / b_adapt=2 / b_bias=0 / direct=3 / weightb=1 / open_gop=0 / weightp=2 / keyint=240 / keyint_min=23 / scenecut=40 / intra_refresh=0 / rc_lookahead=40 / rc=2pass / mbtree=1 / bitrate=7533 / ratetol=1.0 / qcomp=0.60 / qpmin=0 / qpmax=69 / qpstep=4 / cplxblur=20.0 / qblur=0.5 / ip_ratio=1.40 / aq=1:1.00
Language : English
Default : Yes
Forced : No
Audio #1
ID : 2
Format : AC-3
Format/Info : Audio Coding 3
Mode extension : CM (complete main)
Format settings, Endianness : Big
Codec ID : A_AC3
Duration : 2h 13mn
Bit rate mode : Constant
Bit rate : 384 Kbps
Channel(s) : 6 channels
Channel positions : Front: L C R, Side: L R, LFE
Sampling rate : 48.0 KHz
Bit depth : 16 bits
Compression mode : Lossy
Stream size : 367 MiB (5%)
Title : |Дубляж|
Language : Russian
Default : Yes
Forced : No
Audio #2
ID : 3
Format : AC-3
Format/Info : Audio Coding 3
Mode extension : CM (complete main)
Format settings, Endianness : Big
Codec ID : A_AC3
Duration : 2h 13mn
Bit rate mode : Constant
Bit rate : 384 Kbps
Channel(s) : 6 channels
Channel positions : Front: L C R, Side: L R, LFE
Sampling rate : 48.0 KHz
Bit depth : 16 bits
Compression mode : Lossy
Stream size : 367 MiB (5%)
Title : |Original|
Language : English
Default : No
Forced : No
Text #1
ID : 4
Format : UTF-8
Codec ID : S_TEXT/UTF8
Codec ID/Info : UTF-8 Plain Text
Language : Russian
Default : No
Forced : No
Text #2
ID : 5
Format : UTF-8
Codec ID : S_TEXT/UTF8
Codec ID/Info : UTF-8 Plain Text
Language : English
Default : No
Forced : No
Menu
00:00:00.000 : :Chapter 01
00:01:35.555 : :Chapter 02
00:07:46.132 : :Chapter 03
00:14:11.140 : :Chapter 04
00:22:25.862 : :Chapter 05
00:31:11.076 : :Chapter 06
00:40:30.576 : :Chapter 07
00:50:48.127 : :Chapter 08
00:57:28.545 : :Chapter 09
01:03:35.728 : :Chapter 10
01:11:00.130 : :Chapter 11
01:20:32.905 : :Chapter 12
01:28:11.417 : :Chapter 13
01:37:18.427 : :Chapter 14
01:45:45.054 : :Chapter 15
01:53:40.463 : :Chapter 16
02:00:28.340 : :Chapter 17
02:05:11.022 : :Chapter 18

Скриншоты

Фильм 3:
Название: Люди Икс: Последняя битва
Оригинальное название: X-Men: The Last Stand
Выпущено: Канада, США, Великобритания
Год выхода: 2006
Жанр: фантастика, боевик, триллер
Продолжительность: 01:44:05
Режиссер: Бретт Рэтнер
В ролях: Хью Джекман, Холли Берри, Иэн МакКеллен, Фамке Янссен, Келси Грэммер, Шон Эшмор, Аарон Стэнфорд, Патрик Стюарт, Бен Фостер, Эллен Пейдж
Сюжет фильма: Людям Икс, во главе с профессором Чарльзом Ксавьером, приходится вступить в битву с самой эволюцией в лице их воскресшего товарища по команде... Джин Грэй, возрожденная в облике Темного Феникса, представляет опасность не только для самой себя, но и для мутантов и для всей человеческой расы.
А когда наконец найдено возможное лекарство - то, что может предотвратить генетические мутации - наступает время решающей битвы между Людьми Икс, Братством Магнето и человечеством.
Видео: MPEG-4 AVC, 7040 Кбит/с, 1920x800, 23.976 кадр/с
Аудио: 1 Russian: AC3, 48000Hz, 5.1 6ch 448kb/s |Дубляж, Blu-ray CEE|
Аудио: 4 English: AC3, 48000Hz, 5.1 6ch 448kb/s
Субтитры: Russian, English

MediaInfo

General
Unique ID : 198968027085398483815226338332216254949 (0x95AFD91F4E5751CAAEBC29569809E1E5)
Complete name : E:\Lyudi iks.[Polnaya kollekciya].(2000-2016).BDRip.1080p\Lyudi iks 2006.Poslednya bitva.BDRip.1080p.mkv
Format : Matroska
Format version : Version 2
File size : 5.76 GiB
Duration : 1h 44mn
Overall bit rate : 7 925 Kbps
Movie name : Lyudi iks 2006.Poslednya bitva.BDRip.1080p
Encoded date : UTC 2017-06-05 19:45:27
Writing application : mkvmerge v5.8.0 ('No Sleep / Pillow') built on Sep 2 2012 15:37:04
Writing library : libebml v1.2.3 + libmatroska v1.3.0
Attachment : Yes
Video
ID : 1
Format : AVC
Format/Info : Advanced Video Codec
Format profile : High@L4.1
Format settings, CABAC : Yes
Format settings, ReFrames : 5 frames
Codec ID : V_MPEG4/ISO/AVC
Duration : 1h 44mn
Bit rate : 7 040 Kbps
Width : 1 920 pixels
Height : 800 pixels
Display aspect ratio : 2.40:1
Frame rate mode : Constant
Frame rate : 23.976 fps
Color space : YUV
Chroma subsampling : 4:2:0
Bit depth : 8 bits
Scan type : Progressive
Bits/(Pixel*Frame) : 0.191
Stream size : 5.00 GiB (87%)
Title : Release by AlexKa
Writing library : x264 core 129 r2230 1cffe9f
Encoding settings : cabac=1 / ref=5 / deblock=1:0:0 / analyse=0x3:0x133 / me=umh / subme=10 / psy=1 / psy_rd=1.00:0.10 / mixed_ref=1 / me_range=32 / chroma_me=1 / trellis=2 / 8x8dct=1 / cqm=0 / deadzone=21,11 / fast_pskip=0 / chroma_qp_offset=-3 / threads=12 / lookahead_threads=2 / sliced_threads=0 / nr=0 / decimate=0 / interlaced=0 / bluray_compat=0 / constrained_intra=0 / bframes=5 / b_pyramid=2 / b_adapt=2 / b_bias=0 / direct=3 / weightb=1 / open_gop=0 / weightp=2 / keyint=240 / keyint_min=23 / scenecut=40 / intra_refresh=0 / rc=2pass / mbtree=0 / bitrate=7040 / ratetol=1.0 / qcomp=0.60 / qpmin=0 / qpmax=69 / qpstep=4 / cplxblur=20.0 / qblur=0.5 / ip_ratio=1.40 / pb_ratio=1.30 / aq=1:0.80
Language : English
Default : Yes
Forced : No
Audio #1
ID : 2
Format : AC-3
Format/Info : Audio Coding 3
Mode extension : CM (complete main)
Format settings, Endianness : Big
Codec ID : A_AC3
Duration : 1h 44mn
Bit rate mode : Constant
Bit rate : 448 Kbps
Channel(s) : 6 channels
Channel positions : Front: L C R, Side: L R, LFE
Sampling rate : 48.0 KHz
Bit depth : 16 bits
Compression mode : Lossy
Stream size : 334 MiB (6%)
Title : |Дубляж, Blu-ray CEE|
Language : Russian
Default : Yes
Forced : No
Audio #2
ID : 3
Format : AC-3
Format/Info : Audio Coding 3
Mode extension : CM (complete main)
Format settings, Endianness : Big
Codec ID : A_AC3
Duration : 1h 44mn
Bit rate mode : Constant
Bit rate : 448 Kbps
Channel(s) : 6 channels
Channel positions : Front: L C R, Side: L R, LFE
Sampling rate : 48.0 KHz
Bit depth : 16 bits
Compression mode : Lossy
Stream size : 334 MiB (6%)
Title : |Original|
Language : English
Default : No
Forced : No
Text #1
ID : 4
Format : UTF-8
Codec ID : S_TEXT/UTF8
Codec ID/Info : UTF-8 Plain Text
Language : Russian
Default : No
Forced : No
Text #2
ID : 5
Format : UTF-8
Codec ID : S_TEXT/UTF8
Codec ID/Info : UTF-8 Plain Text
Language : English
Default : No
Forced : No
Menu
00:00:00.000 : :Chapter 01
00:05:17.025 : :Chapter 02
00:09:46.132 : :Chapter 03
00:14:11.140 : :Chapter 04
00:22:25.862 : :Chapter 05
00:31:11.076 : :Chapter 06
00:40:30.576 : :Chapter 07
00:50:48.127 : :Chapter 08
00:57:28.545 : :Chapter 09
01:03:35.728 : :Chapter 10
01:11:00.130 : :Chapter 11
01:20:32.905 : :Chapter 12
01:28:11.417 : :Chapter 13
01:37:41.027 : :Chapter 14

Скриншоты

Фильм 4:
Название: Люди Икс: Начало. Росомаха
Оригинальное название: X-Men Origins: Wolverine
Выпущено: США
Год выхода: 2009
Жанр: фантастика, боевик, триллер
Продолжительность: 01:47:21
Режиссер: Гэвин Худ
В ролях: Хью Джекман, Лив Шрайбер, Дэнни Хьюстон, Уилл Ай Эм, Линн Коллинс, Кевин Дюран, Доминик Монахэн, Тейлор Китч, Дэниэл Хенни, Райан Рейнольдс
Сюжет фильма: Фильм рассказывает о неистовом и романтичном прошлом Росомахи, его сложных отношениях с Виктором Кридом и о зловещей программе Оружие Х. При этом Росомаха встречается со многими мутантами, уже знакомыми и новыми, и узнает несколько легенд о мире Людей Икс.
Видео: MPEG-4 AVC, 6786 Кбит/с, 1920x816, 23.976 кадр/с
Аудио: 1 Russian: AC3, 48000Hz, 5.1 6ch 448kb/s |Дубляж, Blu-ray CEE|
Аудио: 2 English: AC3, 48000Hz, 5.1 6ch 448kb/s
Субтитры: Russian, English

MediaInfo

General
Unique ID : 215747058497585769794125922346662457312 (0xA24F5F3DD7C2E44696196B3FC1E16FE0)
Complete name : E:\Lyudi iks.[Polnaya kollekciya].(2000-2016).BDRip.1080p\Lyudi iks 2009.Nachalo rosomaha.BDRip.1080p.mkv
Format : Matroska
Format version : Version 2
File size : 5.76 GiB
Duration : 1h 47mn
Overall bit rate : 7 684 Kbps
Movie name : Lyudi iks 2009.Nachalo rosomaha.BDRip.1080p
Encoded date : UTC 2017-06-05 19:15:58
Writing application : mkvmerge v5.8.0 ('No Sleep / Pillow') built on Sep 2 2012 15:37:04
Writing library : libebml v1.2.3 + libmatroska v1.3.0
Attachment : Yes
Video
ID : 1
Format : AVC
Format/Info : Advanced Video Codec
Format profile : High@L4.1
Format settings, CABAC : Yes
Format settings, ReFrames : 5 frames
Codec ID : V_MPEG4/ISO/AVC
Duration : 1h 47mn
Bit rate : 6 786 Kbps
Width : 1 920 pixels
Height : 816 pixels
Display aspect ratio : 2.35:1
Frame rate mode : Constant
Frame rate : 23.976 fps
Color space : YUV
Chroma subsampling : 4:2:0
Bit depth : 8 bits
Scan type : Progressive
Bits/(Pixel*Frame) : 0.181
Stream size : 4.98 GiB (86%)
Title : Release by AlexKa
Writing library : x264 core 129 r2230 1cffe9f
Encoding settings : cabac=1 / ref=5 / deblock=1:0:0 / analyse=0x3:0x133 / me=umh / subme=10 / psy=1 / psy_rd=1.00:0.10 / mixed_ref=1 / me_range=32 / chroma_me=1 / trellis=2 / 8x8dct=1 / cqm=0 / deadzone=21,11 / fast_pskip=0 / chroma_qp_offset=-3 / threads=12 / lookahead_threads=2 / sliced_threads=0 / nr=0 / decimate=0 / interlaced=0 / bluray_compat=0 / constrained_intra=0 / bframes=5 / b_pyramid=2 / b_adapt=2 / b_bias=0 / direct=3 / weightb=1 / open_gop=0 / weightp=2 / keyint=240 / keyint_min=23 / scenecut=40 / intra_refresh=0 / rc=2pass / mbtree=0 / bitrate=6786 / ratetol=1.0 / qcomp=0.60 / qpmin=0 / qpmax=69 / qpstep=4 / cplxblur=20.0 / qblur=0.5 / ip_ratio=1.40 / pb_ratio=1.30 / aq=1:0.80
Language : English
Default : Yes
Forced : No
Audio #1
ID : 2
Format : AC-3
Format/Info : Audio Coding 3
Mode extension : CM (complete main)
Format settings, Endianness : Big
Codec ID : A_AC3
Duration : 1h 47mn
Bit rate mode : Constant
Bit rate : 448 Kbps
Channel(s) : 6 channels
Channel positions : Front: L C R, Side: L R, LFE
Sampling rate : 48.0 KHz
Bit depth : 16 bits
Compression mode : Lossy
Stream size : 344 MiB (6%)
Language : Russian
Default : Yes
Forced : No
Audio #2
ID : 3
Format : AC-3
Format/Info : Audio Coding 3
Mode extension : CM (complete main)
Format settings, Endianness : Big
Codec ID : A_AC3
Duration : 1h 47mn
Bit rate mode : Constant
Bit rate : 448 Kbps
Channel(s) : 6 channels
Channel positions : Front: L C R, Side: L R, LFE
Sampling rate : 48.0 KHz
Bit depth : 16 bits
Compression mode : Lossy
Stream size : 344 MiB (6%)
Title : |Original|
Language : English
Default : No
Forced : No
Text #1
ID : 4
Format : UTF-8
Codec ID : S_TEXT/UTF8
Codec ID/Info : UTF-8 Plain Text
Language : Russian
Default : No
Forced : No
Text #2
ID : 5
Format : UTF-8
Codec ID : S_TEXT/UTF8
Codec ID/Info : UTF-8 Plain Text
Language : English
Default : No
Forced : No
Menu
00:00:00.000 : :Chapter 01
00:03:21.025 : :Chapter 02
00:07:46.132 : :Chapter 03
00:14:11.140 : :Chapter 04
00:22:25.862 : :Chapter 05
00:31:11.076 : :Chapter 06
00:40:30.576 : :Chapter 07
00:50:48.127 : :Chapter 08
00:57:28.545 : :Chapter 09
01:03:35.728 : :Chapter 10
01:11:00.130 : :Chapter 11
01:20:32.905 : :Chapter 12
01:28:11.417 : :Chapter 13
01:37:18.427 : :Chapter 14
01:41:26.024 : :Chapter 15

Скриншоты

Фильм 5:
Название: Люди Икс: Первый класс
Оригинальное название: X: First Class
Выпущено: США, Великобритания
Год выхода: 2011
Жанр: фантастика, боевик, приключения
Продолжительность: 02:11:42
Режиссер: Мэттью Вон
В ролях: Джеймс МакЭвой, Майкл Фассбендер, Кевин Бейкон, Роуз Бирн, Дженнифер Лоуренс, Дженьюэри Джонс, Николас Холт, Лукас Тилл, Калеб Лэндри Джонс, Зои Кравиц
Сюжет фильма: Фильм расскажет о том, как сформировались профессор Ксавьер и Магнито, о процессе основания школы профессора для детей-мутантов и, наконец, о том, что же произошло между двумя закадычными друзьями и почему они расстались.
Видео: MPEG-4 AVC, 7537 Кбит/с, 1920x816, 23.976 кадр/с
Аудио: 1 Russian: AC3, 48000Hz, 5.1 6ch 448kb/s |Дубляж|
Аудио: 2 English: AC3, 48000Hz, 5.1 6ch 448kb/s
Субтитры: Russian, English

MediaInfo

General
Unique ID : 236495674646172019483669558397226369854 (0xB1EB68FFB73A1B8BB4C0B1A10A9AC33E)
Complete name : E:\Lyudi iks.[Polnaya kollekciya].(2000-2016).BDRip.1080p\Lyudi iks 2011.Perviy klass.BDRip.1080p.mkv
Format : Matroska
Format version : Version 2
File size : 7.76 GiB
Duration : 2h 11mn
Overall bit rate : 8 433 Kbps
Movie name : Lyudi iks 2011.Perviy klass.BDRip.1080p
Encoded date : UTC 2017-06-05 19:24:04
Writing application : mkvmerge v5.8.0 ('No Sleep / Pillow') built on Sep 2 2012 15:37:04
Writing library : libebml v1.2.3 + libmatroska v1.3.0
Attachment : Yes
Video
ID : 1
Format : AVC
Format/Info : Advanced Video Codec
Format profile : High@L4.1
Format settings, CABAC : Yes
Format settings, ReFrames : 5 frames
Codec ID : V_MPEG4/ISO/AVC
Duration : 2h 11mn
Bit rate : 7 537 Kbps
Width : 1 920 pixels
Height : 816 pixels
Display aspect ratio : 2.35:1
Frame rate mode : Constant
Frame rate : 23.976 fps
Color space : YUV
Chroma subsampling : 4:2:0
Bit depth : 8 bits
Scan type : Progressive
Bits/(Pixel*Frame) : 0.201
Stream size : 6.78 GiB (87%)
Title : Release by AlexKa
Writing library : x264 core 129 r2230 1cffe9f
Encoding settings : cabac=1 / ref=5 / deblock=1:0:0 / analyse=0x3:0x133 / me=umh / subme=10 / psy=1 / psy_rd=1.00:0.10 / mixed_ref=1 / me_range=32 / chroma_me=1 / trellis=2 / 8x8dct=1 / cqm=0 / deadzone=21,11 / fast_pskip=0 / chroma_qp_offset=-3 / threads=12 / lookahead_threads=2 / sliced_threads=0 / nr=0 / decimate=0 / interlaced=0 / bluray_compat=0 / constrained_intra=0 / bframes=5 / b_pyramid=2 / b_adapt=2 / b_bias=0 / direct=3 / weightb=1 / open_gop=0 / weightp=2 / keyint=240 / keyint_min=23 / scenecut=40 / intra_refresh=0 / rc=2pass / mbtree=0 / bitrate=7537 / ratetol=1.0 / qcomp=0.60 / qpmin=0 / qpmax=69 / qpstep=4 / cplxblur=20.0 / qblur=0.5 / ip_ratio=1.40 / pb_ratio=1.30 / aq=1:0.80
Language : English
Default : Yes
Forced : No
Audio #1
ID : 2
Format : AC-3
Format/Info : Audio Coding 3
Mode extension : CM (complete main)
Format settings, Endianness : Big
Codec ID : A_AC3
Duration : 2h 11mn
Bit rate mode : Constant
Bit rate : 448 Kbps
Channel(s) : 6 channels
Channel positions : Front: L C R, Side: L R, LFE
Sampling rate : 48.0 KHz
Bit depth : 16 bits
Compression mode : Lossy
Stream size : 422 MiB (5%)
Title : |Дубляж|
Language : Russian
Default : Yes
Forced : No
Audio #2
ID : 3
Format : AC-3
Format/Info : Audio Coding 3
Mode extension : CM (complete main)
Format settings, Endianness : Big
Codec ID : A_AC3
Duration : 2h 11mn
Bit rate mode : Constant
Bit rate : 448 Kbps
Channel(s) : 6 channels
Channel positions : Front: L C R, Side: L R, LFE
Sampling rate : 48.0 KHz
Bit depth : 16 bits
Compression mode : Lossy
Stream size : 422 MiB (5%)
Title : |Original|
Language : English
Default : No
Forced : No
Text #1
ID : 4
Format : UTF-8
Codec ID : S_TEXT/UTF8
Codec ID/Info : UTF-8 Plain Text
Language : Russian
Default : No
Forced : No
Text #2
ID : 5
Format : UTF-8
Codec ID : S_TEXT/UTF8
Codec ID/Info : UTF-8 Plain Text
Language : English
Default : No
Forced : No
Menu
00:00:00.000 : :Chapter 01
00:04:22.019 : :Chapter 02
00:09:46.132 : :Chapter 03
00:14:11.140 : :Chapter 04
00:22:25.862 : :Chapter 05
00:31:11.076 : :Chapter 06
00:40:30.576 : :Chapter 07
00:50:48.127 : :Chapter 08
00:57:28.545 : :Chapter 09
01:03:35.728 : :Chapter 10
01:11:00.130 : :Chapter 11
01:20:32.905 : :Chapter 12
01:28:11.417 : :Chapter 13
01:37:18.427 : :Chapter 14
01:45:45.054 : :Chapter 15
01:53:40.463 : :Chapter 16
02:00:28.340 : :Chapter 17
02:04:24.020 : :Chapter 18

Скриншоты

Фильм 6:
Название: Люди Икс: Дни минувшего будущего
Оригинальное название: X-Men: Days of Future Past
Выпущено: США, Великобритания
Год выхода: 2014
Жанр: фантастика, боевик, триллер, приключения
Продолжительность: 02:11:35
Режиссер: Брайан Сингер
В ролях: Хью Джекман, Джеймс МакЭвой, Майкл Фассбендер, Дженнифер Лоуренс, Холли Берри, Николас Холт, Анна Пэкуин, Эллен Пейдж, Питер Динклэйдж, Шон Эшмор
Сюжет фильма: В недалёком будущем мутанты близки к истреблению роботами-охотниками на мутантов Стражами. Единственная надежда для мутантов выжить - предотвратить череду роковых событий, приведших к появлению Стражей. С помощью своих способностей, Китти Прайд перемещает сознание Росомахи в его молодое тело в 1973 год. В прошлом всё оказывается не так радужно: молодой Профессор Икс окончательно разочарован в своих идеях, Магнето содержится в тюрьме глубоко под землёй, а человечество не знает как реагировать на широкое появление мутантов...
Видео: MPEG-4 AVC, 7545 Кбит/с, 1920x800, 23.976 кадр/с
Аудио: 1 Russian: AC3, 48000Hz, 5.1 6ch 448kb/s |Дубляж, Blu-ray CEE|
Аудио: 2 English: AC3, 48000Hz, 5.1 6ch 448kb/s
Субтитры: Russian, English

MediaInfo

General
Unique ID : 197002862283012551740108986243735067206 (0x94355F0458EA131A85C4ED3AD2AB9A46)
Complete name : E:\Lyudi iks.[Polnaya kollekciya].(2000-2016).BDRip.1080p\Lyudi iks 2014.Dni minuvshego budushego.BDRip.1080p.mkv
Format : Matroska
Format version : Version 2
File size : 7.76 GiB
Duration : 2h 11mn
Overall bit rate : 8 442 Kbps
Movie name : Lyudi iks 2014.Dni minuvshego budushego.BDRip.1080p
Encoded date : UTC 2017-06-05 19:32:40
Writing application : mkvmerge v5.8.0 ('No Sleep / Pillow') built on Sep 2 2012 15:37:04
Writing library : libebml v1.2.3 + libmatroska v1.3.0
Attachment : Yes
Video
ID : 1
Format : AVC
Format/Info : Advanced Video Codec
Format profile : High@L4.1
Format settings, CABAC : Yes
Format settings, ReFrames : 5 frames
Codec ID : V_MPEG4/ISO/AVC
Duration : 2h 11mn
Bit rate : 7 545 Kbps
Width : 1 920 pixels
Height : 800 pixels
Display aspect ratio : 2.40:1
Frame rate mode : Constant
Frame rate : 23.976 fps
Color space : YUV
Chroma subsampling : 4:2:0
Bit depth : 8 bits
Scan type : Progressive
Bits/(Pixel*Frame) : 0.205
Stream size : 6.78 GiB (87%)
Title : Release by AlexKa
Writing library : x264 core 142 r2479 dd79a61
Encoding settings : cabac=1 / ref=5 / deblock=1:-3:-3 / analyse=0x3:0x133 / me=umh / subme=11 / psy=1 / psy_rd=1.00:0.00 / mixed_ref=1 / me_range=32 / chroma_me=1 / trellis=2 / 8x8dct=1 / cqm=0 / deadzone=21,11 / fast_pskip=0 / chroma_qp_offset=-2 / threads=12 / lookahead_threads=2 / sliced_threads=0 / nr=0 / decimate=0 / interlaced=0 / bluray_compat=0 / constrained_intra=0 / bframes=7 / b_pyramid=2 / b_adapt=2 / b_bias=0 / direct=3 / weightb=1 / open_gop=0 / weightp=2 / keyint=240 / keyint_min=23 / scenecut=40 / intra_refresh=0 / rc=2pass / mbtree=0 / bitrate=7545 / ratetol=1.0 / qcomp=0.60 / qpmin=0 / qpmax=69 / qpstep=4 / cplxblur=20.0 / qblur=0.5 / ip_ratio=1.40 / pb_ratio=1.30 / aq=1:0.70
Language : English
Default : Yes
Forced : No
Audio #1
ID : 2
Format : AC-3
Format/Info : Audio Coding 3
Mode extension : CM (complete main)
Format settings, Endianness : Big
Codec ID : A_AC3
Duration : 2h 11mn
Bit rate mode : Constant
Bit rate : 448 Kbps
Channel(s) : 6 channels
Channel positions : Front: L C R, Side: L R, LFE
Sampling rate : 48.0 KHz
Bit depth : 16 bits
Compression mode : Lossy
Stream size : 422 MiB (5%)
Title : |Дубляж, Blu-ray CEE|
Language : Russian
Default : Yes
Forced : No
Audio #2
ID : 3
Format : AC-3
Format/Info : Audio Coding 3
Mode extension : CM (complete main)
Format settings, Endianness : Big
Codec ID : A_AC3
Duration : 2h 11mn
Bit rate mode : Constant
Bit rate : 448 Kbps
Channel(s) : 6 channels
Channel positions : Front: L C R, Side: L R, LFE
Sampling rate : 48.0 KHz
Bit depth : 16 bits
Compression mode : Lossy
Stream size : 422 MiB (5%)
Title : |Original|
Language : English
Default : No
Forced : No
Text #1
ID : 4
Format : UTF-8
Codec ID : S_TEXT/UTF8
Codec ID/Info : UTF-8 Plain Text
Language : Russian
Default : No
Forced : No
Text #2
ID : 5
Format : UTF-8
Codec ID : S_TEXT/UTF8
Codec ID/Info : UTF-8 Plain Text
Language : English
Default : No
Forced : No
Menu
00:00:00.000 : :Chapter 01
00:03:33.025 : :Chapter 02
00:08:46.132 : :Chapter 03
00:14:11.140 : :Chapter 04
00:22:25.862 : :Chapter 05
00:31:11.076 : :Chapter 06
00:40:30.576 : :Chapter 07
00:50:48.127 : :Chapter 08
00:57:28.545 : :Chapter 09
01:03:35.728 : :Chapter 10
01:11:00.130 : :Chapter 11
01:20:32.905 : :Chapter 12
01:28:11.417 : :Chapter 13
01:37:18.427 : :Chapter 14
01:45:45.054 : :Chapter 15
01:53:40.463 : :Chapter 16
02:00:12.050 : :Chapter 17
02:02:35.022 : :Chapter 18

Скриншоты

Фильм 7:
Название: Люди Икс: Апокалипсис
Оригинальное название: X-Men: Apocalypse
Выпущено: США
Год выхода: 2016
Жанр: фантастика, боевик, приключения
Продолжительность: 02:23:56
Режиссер: Брайан Сингер
В ролях: Джеймс МакЭвой, Майкл Фассбендер, Дженнифер Лоуренс, Николас Холт, Оскар Айзек, Роуз Бирн, Эван Питерс, Джош Хелман, Софи Тернер, Тай Шеридан
Сюжет фильма: События «Дней Минувшего Будущего» оказали колоссальное влияние на мир, где мутанты и люди борются за свое место под Солнцем. В это нелегкое время Людям Икс предстоит столкнуться со своим самым опасным противником - древним мутантом Апокалипсисом, существом, схватка с которым может стать последней не только для мутантов, но и в принципе для всего человечества. В поисках способа победы над неуязвимым и бессмертным монстром Людям Икс предстоит узнать больше о происхождении своего вида. Но Апокалипсис неимоверно силен, и вероятность победы все уменьшается, ведь он твердо убежден, что только сильнейшие имеют право на выживание...
Видео: MPEG-4 AVC, 6947 Кбит/с, 1920x800, 23.976 кадр/с
Аудио: 1 Russian: AC3, 48000Hz, 5.1 6ch 384kb/s |Дубляж, Blu-ray EUR|
Аудио: 2 English: AC3, 48000Hz, 5.1 6ch 384kb/s
Субтитры: Russian, English

MediaInfo

General
Unique ID : 253322237248321319132663898484709798784 (0xBE9416963691D524B6E08A931DFC3380)
Complete name : E:\Lyudi iks.[Polnaya kollekciya].(2000-2016).BDRip.1080p\Lyudi iks 2016.Apokalipsis.BDRip.1080p.mkv
Format : Matroska
Format version : Version 2
File size : 7.76 GiB
Duration : 2h 23mn
Overall bit rate : 7 717 Kbps
Movie name : Lyudi iks 2016.Apokalipsis.BDRip.1080p
Encoded date : UTC 2017-06-05 19:53:19
Writing application : mkvmerge v5.8.0 ('No Sleep / Pillow') built on Sep 2 2012 15:37:04
Writing library : libebml v1.2.3 + libmatroska v1.3.0
Attachment : Yes
Video
ID : 1
Format : AVC
Format/Info : Advanced Video Codec
Format profile : High@L4.1
Format settings, CABAC : Yes
Format settings, ReFrames : 5 frames
Codec ID : V_MPEG4/ISO/AVC
Duration : 2h 23mn
Bit rate : 6 947 Kbps
Width : 1 920 pixels
Height : 800 pixels
Display aspect ratio : 2.40:1
Frame rate mode : Constant
Frame rate : 23.976 fps
Color space : YUV
Chroma subsampling : 4:2:0
Bit depth : 8 bits
Scan type : Progressive
Bits/(Pixel*Frame) : 0.189
Stream size : 6.83 GiB (88%)
Title : Release by Neofilm
Writing library : x264 core 148 r2744 b97ae06
Encoding settings : cabac=1 / ref=5 / deblock=1:0:0 / analyse=0x3:0x133 / me=umh / subme=10 / psy=1 / psy_rd=1.00:0.00 / mixed_ref=1 / me_range=24 / chroma_me=1 / trellis=2 / 8x8dct=1 / cqm=0 / deadzone=21,11 / fast_pskip=0 / chroma_qp_offset=-2 / threads=24 / lookahead_threads=2 / sliced_threads=0 / nr=0 / decimate=1 / interlaced=0 / bluray_compat=0 / constrained_intra=0 / bframes=3 / b_pyramid=2 / b_adapt=2 / b_bias=0 / direct=3 / weightb=1 / open_gop=0 / weightp=2 / keyint=240 / keyint_min=23 / scenecut=40 / intra_refresh=0 / rc_lookahead=40 / rc=2pass / mbtree=1 / bitrate=6947 / ratetol=1.0 / qcomp=0.60 / qpmin=0 / qpmax=69 / qpstep=4 / cplxblur=20.0 / qblur=0.5 / ip_ratio=1.40 / aq=1:1.00
Language : English
Default : Yes
Forced : No
Audio #1
ID : 2
Format : AC-3
Format/Info : Audio Coding 3
Mode extension : CM (complete main)
Format settings, Endianness : Big
Codec ID : A_AC3
Duration : 2h 23mn
Bit rate mode : Constant
Bit rate : 384 Kbps
Channel(s) : 6 channels
Channel positions : Front: L C R, Side: L R, LFE
Sampling rate : 48.0 KHz
Bit depth : 16 bits
Compression mode : Lossy
Stream size : 395 MiB (5%)
Title : |Дубляж, Blu-ray EUR|
Language : Russian
Default : Yes
Forced : No
Audio #2
ID : 3
Format : AC-3
Format/Info : Audio Coding 3
Mode extension : CM (complete main)
Format settings, Endianness : Big
Codec ID : A_AC3
Duration : 2h 23mn
Bit rate mode : Constant
Bit rate : 384 Kbps
Channel(s) : 6 channels
Channel positions : Front: L C R, Side: L R, LFE
Sampling rate : 48.0 KHz
Bit depth : 16 bits
Compression mode : Lossy
Stream size : 395 MiB (5%)
Title : |Original|
Language : English
Default : No
Forced : No
Text #1
ID : 4
Format : UTF-8
Codec ID : S_TEXT/UTF8
Codec ID/Info : UTF-8 Plain Text
Language : Russian
Default : No
Forced : No
Text #2
ID : 5
Format : UTF-8
Codec ID : S_TEXT/UTF8
Codec ID/Info : UTF-8 Plain Text
Language : English
Default : No
Forced : No
Menu
00:00:00.000 : :Chapter 01
00:01:41.021 : :Chapter 02
00:08:14.132 : :Chapter 03
00:14:11.140 : :Chapter 04
00:22:25.862 : :Chapter 05
00:31:11.076 : :Chapter 06
00:40:30.576 : :Chapter 07
00:50:48.127 : :Chapter 08
00:57:28.545 : :Chapter 09
01:03:35.728 : :Chapter 10
01:11:00.130 : :Chapter 11
01:20:32.905 : :Chapter 12
01:28:11.417 : :Chapter 13
01:37:18.427 : :Chapter 14
01:45:45.054 : :Chapter 15
01:53:40.463 : :Chapter 16
02:00:28.340 : :Chapter 17
02:08:03.662 : :Chapter 18
02:14:07.084 : :Chapter 19

Скриншоты

[tas-ix.me].t117253.torrent
 ЗОЛОТАЯ РАЗДАЧА! СКАЧАННОЕ НЕ ЗАСЧИТЫВАЕТСЯ! 
Торрент: Зарегистрирован [ 2017-06-09 11:25 ] · A539F53DFB51E34A00526DC50F1F14571D74708C

Скачать .torrent

Скачать

243 KB

Статус: проверено
Скачан: 59 раз
Размер: 48,32 GB
 



Последний раз редактировалось: Abnormal (2017-06-09 11:22), всего редактировалось 1 раз

Создавать темы 09-Июн-2017 11:10

[Профиль]  [ЛС] 

Топик был перенесен из форума HD-AVC в форум Зарубежное кино
ruhal

Создавать темы 09-Авг-2017 15:14

 

Mura oka

Стаж: 2 года 10 месяцев

Сообщений: 11

Симпатии: 2

razdacha budet?

Создавать темы 26-Мар-2019 20:07

[Профиль]  [ЛС] 
Показать сообщения:    
Ответить на тему

Текущее время: 17-Июн 08:06

Часовой пояс: UTC + 5



Вы не можете начинать темы
Вы не можете отвечать на сообщения
Вы не можете редактировать свои сообщения
Вы не можете удалять свои сообщения
Вы не можете голосовать в опросах
Вы не можете прикреплять файлы к сообщениям
Вы не можете скачивать файлы